#TITLE:へーーーーっくち！～ルン時々、レン～;
#SUBTITLE:To LOVEる－とらぶる－;
#ARTIST:ルン／レン（大浦冬華）;
#TITLETRANSLIT:Ah-choo! ~Run tokidoki Ren~;
#SUBTITLETRANSLIT:To LOVE-Ru -Trouble-;
#ARTISTTRANSLIT:Run/Ren (Fuyuka Ooura);
#CREDIT:neothe0ne;
#BANNER:Ah-choo! ~Run tokidoki Ren~-bn.png;
#BACKGROUND:ren1.png;
#LYRICSPATH:Ah-choo! ~Run tokidoki Ren~.lrc;
#CDTITLE:neothe0ne.png;
#MUSIC:Ah-choo! ~Run tokidoki Ren~.mp3;
#OFFSET:-0.080;
#SAMPLESTART:69.544;
#SAMPLELENGTH:11.625;
#SELECTABLE:YES;
#BPMS:0.000=166.000,106.000=274.000,172.000=166.000;
#STOPS:106.000=0.820
;
#BGCHANGES:4.000=ren1.png=1.000=0=0=0,
10.500=ren4.png=1.000=0=0=0,
76.000=ren1.png=1.000=0=0=0,
104.500=sneeze1.avi=1.000=0=0=0,
108.000=run1.png=1.000=0=0=0,
171.000=sneeze2.avi=1.000=0=0=0,
175.125=sneeze2.5.avi=1.000=0=0=0,
184.000=ren2.png=1.000=0=0=0,
214.000=ren3.png=1.000=0=0=0,
216.000=ren4.png=1.000=0=0=0,
240.000=sneeze3.avi=1.000=0=0=0,
247.500=end.avi=1.000=0=0=0,
287.500=blank.bmp=1.000=1=0=0,
99999=-nosongbg-=1.000=0=0=0 // don't automatically add -songbackground-
;
// cache tags:
#FIRSTBEAT:4.000;
#LASTBEAT:287.000;
#SONGFILENAME:songs/Pack anime 1/[neothe0ne] Ah-choo! ~Run tokidoki Ren~ [ToLoveRU]/Ah-choo! ~Run tokidoki Ren~.sm;
#HASMUSIC:1;
#HASBANNER:1;
#MUSICLENGTH:102.743;
// end cache tags

//---------------dance-single - neothe0ne----------------
#NOTES:
     dance-single:
     neothe0ne:
     Hard:
     8:
     0.626,0.768,1.000,0.029,0.049,342.000,105.000,3.000,0.000,0.000:
0000
0000
0000
0000
,
1010
0000
0000
0110
0000
0000
0101
0000
,
1001
1000
0001
1000
0000
0010
1010
1000
,
0010
0000
1000
0010
0100
0010
0000
0110
,
0000
0010
1000
0010
1000
0000
0100
0000
,
1000
0010
1000
0010
1000
0010
0000
0110
,
0000
0100
0001
0010
0001
0000
1000
0000
,
1001
0000
0001
0000
0100
0010
1000
0010
,
0000
1000
0100
1000
0000
0001
1000
0000
,
1010
0000
0110
0000
0101
0001
1000
0010
,
2010
0000
0010
0010
0000
0010
0000
3010
,
1010
0110
1010
1000
,
1001
1001
0000
0101
0000
0001
0010
0001
,
0011
0000
1001
0000
1010
0000
0010
1000
,
1010
1000
0001
1000
0000
0001
0001
1000
,
1001
1010
0110
0010
,
1010
0000
1010
0000
0000
0000
1001
0000
0000
0000
0001
1000
0001
1000
0010
1000
,
0000
1010
1010
0000
0110
0110
0000
0101
,
0000
1001
1001
0000
1010
0000
1010
0000
,
0110
0000
0010
1000
0000
0001
0000
1000
,
0010
1000
0010
0100
0000
0001
1000
0100
,
1000
0010
1000
0001
0000
1000
0010
0100
,
0000
0010
0000
1000
0100
0010
0001
0100
,
0001
0000
1000
0100
0000
1000
0000
0010
,
1000
0001
0100
0010
0000
0100
0001
1000
,
0010
1000
0010
1000
0000
0100
1000
0001
,
0000
0000
1000
0001
1000
0001
1000
0000
0001
0000
0000
0000
0000
0000
0000
0000
,
1000
0000
0001
0000
1000
0000
0001
0010
,
0000
0001
0100
0010
,
1000
0000
0010
0000
1000
0000
0001
1000
,
0000
0001
0100
0010
,
0110
0000
0000
1010
0000
0000
0000
0000
,
0110
0000
0000
0110
0000
0000
0000
0000
,
0101
0000
0000
0101
0000
0000
0101
0000
,
0000
0001
1000
0010
,
1000
0000
0001
0000
1000
0000
0010
0100
,
0000
0010
1000
0001
,
0010
0000
0001
0000
0100
0000
0010
1000
,
0000
0010
1000
0001
,
1001
0000
0000
1001
0000
0000
0000
0000
,
1010
0000
0000
1010
0000
0000
0000
0000
,
0110
0000
0000
0110
0000
0000
0110
0000
,
0000
0010
1000
0010
,
0000
0000
0000
0000
,
1001
0000
0000
1001
0000
0000
1001
0000
,
1001
0001
0010
0001
0000
1000
1001
0001
,
0100
0000
0000
0010
1000
1010
0000
1010
,
0000
0010
1000
0100
1000
0000
1100
0000
,
0110
0010
0001
1000
0010
1010
0000
0110
,
0000
0010
1000
0010
1000
0000
1010
0000
,
1001
0000
0001
0000
0100
0010
1000
1010
,
0000
0010
1000
0100
0000
1000
0001
0000
,
1001
0000
0001
0000
1000
0001
0100
0010
,
0100
0000
0000
0000
0010
0000
0000
0000
1000
0000
0010
1000
0010
1000
0010
0000
,
1000
0000
0010
1000
0001
1000
0000
1001
,
0000
0001
0100
0001
0010
0000
0001
0000
,
0100
0010
1000
0000
0010
1000
0000
1010
,
0000
0010
0000
1000
0001
0000
0100
0000
,
0110
0000
0010
0000
1000
0001
0100
0101
,
0000
0001
1000
1001
0000
0001
0010
0000
,
0110
1100
0101
1001
,
1001
0000
0001
0100
0000
0010
0000
0100
,
0110
0110
1010
1010
,
1001
1001
0000
1010
0000
1010
0010
1000
,
1100
0000
0110
0000
0011
0000
0011
0001
,
0100
0001
1000
0001
0000
0100
0100
0010
,
0110
1001
0110
1010
,
1100
0000
1100
0000
0000
0000
0011
0000
0000
0000
0010
0001
0010
0001
0010
0000
,
0000
0011
0011
0000
1001
1001
0000
1010
,
0000
0000
0000
0000
0110
0000
0000
0000
0110
0000
0000
0000
0110
0000
0000
0000
0000
0000
0000
0000
0000
0000
0000
0000
0000
0000
0000
0000
0000
2002
0000
0000
,
0000
0000
0000
0000
,
0000
0000
0000
3003
;

//---------------dance-single - neothe0ne----------------
#NOTES:
     dance-single:
     neothe0ne:
     Beginner:
     1:
     0.092,0.170,0.010,0.000,0.005,65.000,1.000,0.000,0.000,0.000:
0000
0000
0000
0000
,
0000
0000
0000
0000
,
0000
0000
0000
0000
,
1000
0000
0000
0000
0000
0000
0000
0001
,
0000
0000
0000
0000
,
0100
0000
0000
0000
0000
0000
0000
0001
,
0000
0000
0000
0000
,
1000
0000
0000
0000
0000
0000
0000
0010
,
0000
0000
0000
0000
,
0100
0000
0000
0000
,
0001
0000
0000
0000
,
0100
0000
0000
0000
,
0001
0000
0000
0000
,
1000
0000
0000
0000
,
0010
0000
0000
0000
,
0100
0000
0000
0000
,
0001
0000
0000
0000
,
0000
0010
0000
0000
0001
0000
0000
0010
,
0000
0000
0001
0000
,
1000
0000
0000
0000
,
0100
0000
0000
0000
,
1000
0000
0000
0000
0000
0000
0000
0010
,
0000
0000
0000
0000
,
0100
0000
0000
0000
,
0001
0000
0000
0000
,
1000
0000
0000
0000
0000
0000
0000
0010
,
0000
0000
0000
0000
,
1000
0000
0000
0000
,
0000
0000
0000
0000
,
0001
0000
0000
0000
,
0000
0000
0000
0000
,
1000
0000
0000
0000
,
0010
0000
0000
0000
,
1000
0000
0000
0000
,
0000
0000
0000
0000
,
0100
0000
0000
0000
,
0000
0000
0000
0000
,
1000
0000
0000
0000
,
0000
0000
0000
0000
,
0001
0000
0000
0000
,
0010
0000
0000
0000
,
0001
0000
0000
0000
,
0000
0000
0000
0000
,
0000
0000
0000
0000
,
1000
0000
0000
0001
0000
0000
1000
0000
,
0001
0000
0000
0000
,
0100
0000
0000
0000
0000
0000
0000
0001
,
0000
0000
0000
0000
,
0010
0000
0000
0000
0000
0000
0000
0001
,
0000
0000
0000
0000
,
1000
0000
0000
0000
0000
0000
0000
0010
,
0000
0000
0000
0000
,
1000
0000
0000
0000
,
0100
0000
0000
0000
,
1000
0000
0000
0000
0000
0000
0000
0010
,
0000
0000
0000
0000
,
0100
0000
0000
0000
0000
0000
0000
0010
,
0000
0000
0000
0000
,
1000
0000
0000
0000
0000
0000
0000
0001
,
0000
0000
0000
0000
,
0010
0000
0000
0000
,
0001
0000
0000
0000
,
0100
0000
0000
0000
,
0010
0000
0000
0000
,
1000
0000
0000
0000
,
0010
0000
0000
0000
,
1000
0000
0000
0000
,
0100
0000
0000
0000
,
0000
1000
0000
0000
0000
0000
0000
0010
,
0000
0000
0000
0000
0000
0000
0000
0000
0000
0000
0000
0000
0000
0000
0000
0000
0000
0000
0000
0000
0000
0000
0000
0000
0000
0000
0000
0000
0000
1010
0000
0000
;

//---------------dance-single - neothe0ne----------------
#NOTES:
     dance-single:
     neothe0ne:
     Easy:
     4:
     0.250,0.306,0.019,0.000,0.005,178.000,2.000,0.000,0.000,0.000:
0000
0000
0000
0000
,
0000
0000
0000
0000
,
0000
0000
0000
0000
,
1000
0000
0010
0000
1000
0000
0000
0001
,
0000
0100
0001
0010
,
0001
0000
1000
0000
0001
0000
0000
0100
,
0000
0001
0010
0001
,
1000
0000
0010
0000
1000
0000
0000
0010
,
0000
0100
0010
1000
,
0001
1000
0010
1000
,
0100
0000
0000
1000
,
0010
0100
0001
0100
,
0001
0000
0000
0010
0000
0000
0001
0000
,
0100
0010
1000
0010
,
1000
0000
0000
0000
0000
0100
0000
0000
,
1000
0001
0010
0001
,
0100
0000
0000
0010
0000
0000
1000
0000
,
0000
0010
0000
0000
0100
0000
0000
0010
,
0000
1000
0001
1000
,
0100
1000
0010
0100
,
0001
1000
0001
1000
,
0100
0010
0001
0100
,
0001
1000
0001
0100
,
0001
0010
0100
1000
,
0010
0100
0001
1000
,
0001
0000
1000
0000
0100
0000
0000
1000
,
0000
0100
1000
0000
,
0001
0000
0000
0000
0000
0000
0000
1000
,
0000
0000
0000
0000
,
0010
0000
0000
0000
0000
0000
0000
1000
,
0000
0000
0000
0000
,
0001
0000
0000
0000
,
1000
0000
0000
0000
,
0010
0000
0000
1000
,
0000
0000
0000
0000
,
0001
0000
0000
0000
0000
0000
0000
0100
,
0000
0000
0000
0000
,
0010
0000
0000
0000
0000
0000
0000
0100
,
0000
0000
0000
0000
,
0001
0000
0000
0000
,
0010
0000
0000
0000
,
0001
0000
0000
1000
,
0000
0000
0000
0000
,
0000
0000
0000
0000
,
0001
0000
0000
0010
0000
0000
0001
0000
,
0010
0000
0000
0001
,
0100
0000
0000
0000
0000
0010
0000
1000
,
0000
0000
0000
0001
,
0100
0000
0000
0000
0000
0001
0000
0010
,
0000
0001
0100
0010
,
1000
0000
0010
0000
0100
0000
0000
0001
,
0000
0000
0000
0100
0000
0000
0010
0000
,
1000
0001
0100
0001
,
0010
0001
1000
0000
,
1010
0000
0010
0000
1000
0000
0000
0001
,
0000
1000
0010
0100
,
0001
0000
0100
0000
0001
0000
0000
0010
,
0000
0001
1000
0001
,
0100
0000
0001
0000
0010
0000
0000
0001
,
0000
1000
0001
0010
,
0001
0100
0100
0000
,
0010
0000
0000
0000
,
1000
0010
1000
0001
,
1000
0000
0000
0010
0000
0000
1000
0000
,
0001
0100
0001
0010
,
0001
0000
0000
0000
0000
0100
0000
0000
,
0010
1000
0001
0100
,
0001
0000
0000
0010
0000
0000
0001
0000
,
0100
0000
0010
0000
1000
0000
0000
0010
,
0000
0000
0000
0000
0000
0000
0000
0000
0000
0000
0000
0000
1000
0000
0000
0000
0000
0000
0000
0000
0000
0000
0000
0000
0000
0000
0000
0000
0000
1001
0000
0000
;

//---------------dance-single - neothe0ne----------------
#NOTES:
     dance-single:
     neothe0ne:
     Medium:
     6:
     0.416,0.489,0.165,0.019,0.005,280.000,17.000,2.000,0.000,0.000:
0000
0000
0000
0000
,
0000
0000
0000
0000
,
0000
0000
0000
0000
,
1000
0000
0001
1000
0001
0000
0000
1001
,
0000
0001
1000
0001
1000
0000
0010
0000
,
0000
0100
0010
0100
0010
0100
0000
0110
,
0000
0010
1000
0001
1000
0000
0001
0000
,
1001
0000
0001
0000
1000
0001
1000
0001
,
0000
0100
0001
0100
0000
0000
0010
0000
,
1000
0000
0010
0000
1000
0100
1000
0100
,
1000
0000
0100
0010
0000
0001
0000
1000
,
0001
0100
0001
0010
,
0001
1000
0000
0001
0000
1000
0010
1000
,
0010
0100
0001
0100
,
0010
0100
0010
0100
0000
0010
0010
0010
,
0100
0001
1000
0010
,
1000
0010
0000
0100
0000
0001
0100
0001
,
0000
0100
0100
0000
0010
0010
0000
1000
,
0000
0001
1000
0000
1001
0000
0110
0000
,
1001
0000
0001
1000
0000
0001
0000
1000
,
0010
1000
0010
1000
0000
0010
0000
0100
,
0010
0100
0010
0100
0000
0001
0100
0001
,
0000
0100
0000
0001
1000
0001
1000
0000
,
0001
0000
0100
0001
0000
0100
0000
0010
,
1000
0010
1000
0010
0000
0100
0000
0010
,
0100
0001
0100
0001
0000
0010
0001
1000
,
0000
0001
1000
0000
1001
0000
0000
0000
,
1000
0000
0000
0000
0001
0000
0000
1000
,
0000
0000
0010
0000
,
1000
0000
0000
0000
0010
0000
0000
0100
,
0000
0000
0001
0000
,
0100
0000
0000
0001
0000
0000
0000
0000
,
0010
0000
0000
0001
0000
0000
0000
0000
,
1000
0000
0000
0010
0000
0000
1000
0000
,
0000
0000
0001
0000
,
0100
0000
0000
0000
0001
0000
0000
0010
,
0000
0000
0001
0000
,
1000
0000
0000
0000
0001
0000
0000
0100
,
0000
0000
0010
0000
,
1000
0000
0000
0010
0000
0000
0000
0000
,
0100
0000
0000
0010
0000
0000
0000
0000
,
1000
0000
0000
0001
0000
0000
1000
0000
,
0000
0000
0000
0000
,
0000
0000
0000
0000
,
0010
0000
0000
0100
0000
0000
0001
0000
,
0100
0001
0100
0001
0000
1000
0010
0000
,
1010
0000
0000
0010
0100
0010
0000
0110
,
0000
0010
1000
0001
1000
0000
0010
0000
,
1010
0000
0000
0000
0000
0110
0000
1010
,
0000
1000
0001
1000
0001
0000
0010
0000
,
0001
0000
0100
0000
0001
0100
0001
0100
,
0000
0010
1000
0010
0000
1000
0100
0000
,
1000
0000
0001
0000
0100
0001
0100
0001
,
0100
0010
1000
0001
,
1001
0000
0001
1000
0001
1000
0000
1010
,
0000
0010
0100
0001
0100
0000
0010
0000
,
0000
1000
0010
0000
1000
0100
0000
1000
,
0000
0001
1000
0001
1000
0000
0001
0000
,
0101
0000
0100
0000
0010
0100
0010
0100
,
0000
0010
1000
0010
0000
0000
1000
0000
,
0001
0100
0001
0010
,
0011
0000
0000
0000
,
0001
0100
0010
1000
,
0010
0100
0000
0010
0000
1000
0010
1000
,
0010
0100
0001
0010
,
0001
1000
0001
1000
0000
0001
0001
0001
,
0010
0001
0100
0010
,
0100
0010
0000
1000
0000
0001
1000
0000
,
0000
0001
0001
0000
0100
0100
0000
0010
,
0000
0000
0000
0000
1000
0000
0000
0000
0010
0000
0000
0000
1000
0000
0000
0000
0000
0000
0000
0000
0000
0000
0000
0000
0000
0000
0000
0000
0000
2020
0000
0000
,
0000
0000
0000
0000
,
0000
0000
0000
3030
;

//---------------dance-single - neothe0ne----------------
#NOTES:
     dance-single:
     neothe0ne:
     Challenge:
     9:
     0.756,0.803,1.000,0.039,0.170,434.000,106.000,4.000,0.000,0.000:
0000
0000
0000
0000
,
1010
0000
0000
0110
0000
0000
0101
0000
,
0011
0011
0011
0011
0000
0001
0101
0100
,
0001
0000
1000
0100
0001
0100
0000
1100
,
0000
0000
0100
0000
1000
0000
0010
0000
0100
0010
0100
0000
0010
0000
1000
0000
,
0001
0001
1000
0001
0100
0010
0000
0110
,
0000
0000
0100
0000
0001
0000
0010
0000
0001
1000
0000
0010
1000
0000
0010
1000
,
0001
0000
0010
0000
0001
0100
0001
1001
,
0000
0000
0001
0000
1000
0000
0010
0000
0000
0000
1000
0000
0010
1000
0010
1000
,
0001
0000
1000
0000
0001
0000
1000
0010
0100
0000
0001
0000
1000
0000
0100
0010
,
0002
0000
0000
0000
0010
0000
0010
0000
0000
0000
0013
0000
0001
0000
0010
0001
,
0010
0001
0011
0001
1001
1000
1010
0000
,
0110
0110
0010
1010
0000
0010
1000
0001
,
1001
0001
1001
1000
1010
1000
0010
1000
,
1100
0100
1000
0001
0000
0010
0010
0001
,
0011
0001
1001
1000
1010
0000
0110
0000
,
0101
0000
0101
0000
0001
0000
1001
0000
0000
0000
1000
0001
1000
0010
1000
0010
,
0000
1010
1010
0000
0110
0110
0000
0101
,
0000
0011
1001
0000
1010
0000
1010
0000
,
0110
0010
1000
0001
1000
1000
0001
1000
,
0001
0100
0001
0020
0000
0031
1000
0100
,
1000
0100
0001
0100
0100
1000
0010
0100
,
0000
0000
0010
0000
0000
0000
1000
0000
0001
0000
1000
0000
0001
0000
0100
0001
,
0100
0001
1000
1000
0100
1000
0100
0100
,
1000
0001
1000
0010
0000
0100
0001
1000
,
0010
0001
0010
1000
1000
0001
1000
0001
,
0000
0000
1000
0001
1000
0001
1000
0001
1000
0000
0000
0000
0000
0000
0000
0000
,
1001
0000
0001
1000
0001
0000
0010
0001
,
0000
1000
0010
0100
,
0110
0000
0100
0010
1000
0000
0001
1000
,
0000
0001
0100
0010
,
1010
0000
0000
0101
0000
0000
0010
0000
,
0110
0000
0000
1010
0000
0000
0001
0000
,
1001
0000
0000
0101
0000
0000
0110
0000
,
0000
0010
1000
0100
0010
0100
1000
0100
,
0110
0000
0010
0001
1000
0000
0010
0100
,
0000
0001
0010
0001
,
0011
0000
0001
0100
0010
0000
1000
0010
,
0000
0100
0001
1000
,
1001
0000
0000
1010
0000
0000
1000
0000
,
1010
0000
0000
0101
0000
0000
0010
0000
,
0110
0000
0000
1010
0000
0000
1100
0000
,
0000
0100
1000
0100
0001
0100
1000
0001
,
0000
0000
0000
0000
,
1001
0000
0000
1010
0000
0000
0101
0000
,
0110
0010
1000
0001
0000
1000
1010
0010
,
0110
0000
0000
0010
1000
1010
0000
0110
,
0000
0000
0010
0000
1000
0000
0100
0000
1000
0000
0100
1000
0010
0000
0100
0000
,
0110
0010
0100
0001
0010
0011
0000
0011
,
0000
0000
0001
0000
0100
0000
0010
0000
1000
0000
0010
1000
0010
0000
1000
0000
,
1001
0000
0001
0000
0100
0001
0010
0011
,
0000
0001
1000
0010
0000
0100
0010
1000
,
1010
0000
0000
0000
0010
0000
0000
0000
0100
0000
0001
0000
0010
0000
0001
0010
,
0001
0000
0000
0000
1001
0000
0000
0000
1010
0000
0010
1000
0010
1000
0010
0100
,
0010
0000
1000
0010
1000
0001
1000
1001
,
0000
0001
0100
0001
0010
0100
1000
0000
,
1100
0100
1000
0000
0100
0010
0000
0011
,
0000
0000
0001
0000
1000
0000
0001
0000
1000
0001
0000
0010
0001
0000
1000
0000
,
1001
0000
0001
0000
0100
0001
0010
0011
,
0000
0000
0010
0000
0100
0000
1100
0000
0000
0000
0100
1000
0100
1000
0100
1000
,
0100
0000
0010
0000
0011
0000
0001
1000
0001
0000
1000
0000
0001
0000
0100
0001
,
0100
0000
0000
0000
0001
0000
0100
0000
0000
0000
0010
0000
0100
0000
0010
0100
,
0010
0100
0110
0010
1010
1000
1010
0000
,
0110
0010
1000
1010
0000
1010
0010
0100
,
0110
0010
1010
1000
1100
0000
1100
0100
,
1100
1000
0001
0010
0000
0100
0100
1000
,
1100
1000
1001
0001
0101
0000
0110
0000
,
1010
0000
1010
0000
0010
0000
0110
0000
0000
0000
0010
1000
0001
1000
0001
1000
,
0000
1010
1010
0000
0011
0011
0000
1001
,
0000
0000
0000
0000
1010
0000
0000
0000
1010
0000
0000
0000
1010
0000
0000
0000
0000
0000
0000
0000
0010
0000
1000
0000
0001
0000
0000
0000
0000
2002
0000
0000
,
0000
0000
0000
0000
,
0000
0000
0000
3003
;
